..:: DẦU KHÍ FAMILY - HUMG ::..


 
Trang ChínhTrang Chính  CalendarCalendar  Trợ giúpTrợ giúp  Tìm kiếmTìm kiếm  Đăng kýĐăng ký  Đăng Nhập  

Share | 
 

 [MF] Black Swan 2010 mHD BluRay x264-EPiK

Go down 
Tác giảThông điệp
.:.Admin.:.
Admin
Admin
avatar

Tổng số bài gửi : 190
Điểm số : 6648
Ngày tham gia : 21/02/2011
Tuổi : 31
Đến từ : Hà Nội, Việt Nam

Bài gửiTiêu đề: [MF] Black Swan 2010 mHD BluRay x264-EPiK   9/3/2011, 2:41 am

Code:
General

Complete name : Black Swan 2010 mHD BluRay x264-EPiK
Format : Matroska
File size : 2.50 GiB
Duration : 1h 48mn
Overall bit rate : 3 314 Kbps
Movie name : EPiK ~ all.hdvnbits.org
Encoded date : UTC 2011-03-06 04:39:24
Writing application : mkvmerge v4.5.0 ('Speed of Light') built on Feb 1 2011 02:10:32
Writing library : libebml v1.2.0 + libmatroska v1.1.0

Video
ID : 1
Format : AVC
Format/Info : Advanced Video Codec
Format profile : High@L4.1
Format settings, CABAC : Yes
Format settings, ReFrames : 8 frames
Format settings, GOP : M=1, N=32
Codec ID : V_MPEG4/ISO/AVC
Duration : 1h 48mn
Bit rate : 2 800 Kbps
Width : 1 280 pixels
Height : 534 pixels
Display aspect ratio : 2.35:1
Frame rate : 23.976 fps
Color space : YUV
Chroma subsampling : 4:2:0
Bit depth : 8 bits
Scan type : Progressive
Bits/(Pixel*Frame) : 0.171
Stream size : 2.11 GiB (84%)
Title : EPiK ~ all.hdvnbits.org
Writing library : x264 core 114 r1913 5fd3dce
Encoding settings : cabac=1 / ref=8 / deblock=1:-3:-3 / analyse=0x3:0x113 / me=umh / subme=9 / psy=1 / psy_rd=1.00:0.10 / mixed_ref=1 / me_range=16 / chroma_me=1 / trellis=2 / 8x8dct=1 / cqm=0 / deadzone=21,11 / fast_pskip=0 / chroma_qp_offset=-3 / threads=6 / sliced_threads=0 / nr=0 / decimate=0 / interlaced=0 / constrained_intra=0 / bframes=7 / b_pyramid=2 / b_adapt=2 / b_bias=0 / direct=3 / weightb=1 / open_gop=0 / weightp=2 / keyint=250 / keyint_min=23 / scenecut=40 / intra_refresh=0 / rc_lookahead=40 / rc=crf / mbtree=1 / crf=23.2 / qcomp=0.60 / qpmin=0 / qpmax=69 / qpstep=4 / ip_ratio=1.40 / aq=1:0.90
Language : English

Audio
ID : 2
Format : AC-3
Format/Info : Audio Coding 3
Mode extension : CM (complete main)
Codec ID : A_AC3
Duration : 1h 48mn
Bit rate mode : Constant
Bit rate : 448 Kbps
Channel(s) : 6 channels
Channel positions : Front: L C R, Side: L R, LFE
Sampling rate : 48.0 KHz
Bit depth : 16 bits
Compression mode : Lossy
Stream size : 346 MiB (14%)
Title : EPiK ~ all.hdvnbits.org
Language : English

Trích dẫn :
Hai nữ diễn viên múa tài năng Nina và Lily của vũ đoàn ba lê ở NewYork
cùng cạnh tranh để giành được vai chính trong vở Hồ Thiên Nga chuẩn bị
công diễn. Để có vai diễn chính, nữ vũ công phải thể hiện thành công
đống thời cả hai vai : Thiên Nga Trắng và Thiên Nga Đen.

Trong khi Nina phù hợp với vai Thiên Nga Trắng trong sang và yêu kiều
thì ngược lại Lily là sự lựa chọn hoàn hảo cho Thiên Nga Đen – vai diễn
thể hiện sự xảo trá và những ham muốn thể xác. Thế nhưng, từ vị trí là
đối thủ cạnh tranh trực tiếp cho vai diễn, Nina và Lyli dần trở nên gần
gũi trong mối quan hệ kỳ lạ giữa tình yêu và long căm ghét.

Cùng trong thời gian đó, Nina thường xuyên bị ám ảnh bởi những cơn ác
mộng giữa thực và hư khuyến cô luôn rơi vào trạng thái tâm lý căng
thẳng cực độ. Và Nina bắt đầu tiếp cận với mặt đen tối trong tâm hồn
mình, những biến đổi phức tạp của tâm lý dẫn dắt cô dần biến đổi trở
thành một cô gái hoàn toàn khác so với con người thực của mình.

Bộ phim giành 5 đề cử Oscar cho hạng mục : Phim hay nhất, đạo diễn xuất
sắc, Nữ diễn viên chính xuất sắc, Quay phim xuất sắc và Dựng phim xuất
sắc nhất.

Thiên Nga Đen (tựa gốc : Black Swan) thuộc thể loại tâm lý, kinh dị do
đạo diễn nỗi tiếng Darren Aronofsk thực hiện. Đây cũng là bộ phim đánh
dấu sự chin muồi trong diễn xuất của nữ diễn viên trẻ Natalie Portman
qua vai diễn Nina – cô gái trẻ sẵn sang hy sinh cả bản thân cho đam mê
nghệ thuật. Với vai diễn này, Natalie Portman đã vinh dự được đề cử
giải Oscar dành cho nữ diễn viên chính xuất sắc nhất. Phim còn có
suwjtham gia của các diễn viên : Mila Kunis, Winona Ryder, Barbara
Hershay và Vincent Cassel …



Download:
mediafire.com ?2msvyhpk8vif3
Về Đầu Trang Go down
http://thietbidaukhi.tk
 
[MF] Black Swan 2010 mHD BluRay x264-EPiK
Về Đầu Trang 
Trang 1 trong tổng số 1 trang
 Similar topics
-
» BẢN CRACK MỚI CHO KIS 2011 Cập nhật ngày 01/10/2010
» Share 59 key KIS sử dụng cho các phiên bản 2010, 2011, 2012, 2013 hạn sử dụng 15/04/2015
» Google Earth-xem bản đồ và... qua vệ tinh
» ABS-5 hôm qua (08.12.2010) lại "ra đi" một số kênh
» tìm sdt tuấn tú

Permissions in this forum:Bạn không có quyền trả lời bài viết
..:: DẦU KHÍ FAMILY - HUMG ::.. :: GIẢI TRÍ, CÔNG NGHỆ SỐ :: Films, Movie, Videos, Music, Ebooks :: Films-
Chuyển đến 
Free forum | © phpBB | Free forum support | Report an abuse | Sosblog