..:: DẦU KHÍ FAMILY - HUMG ::..


 
Trang ChínhTrang Chính  CalendarCalendar  Trợ giúpTrợ giúp  Tìm kiếmTìm kiếm  Đăng kýĐăng ký  Đăng Nhập  

Share | 
 

 [MF] Tangled - Người Đẹp Tóc Mây (2010) mHD BluRay x264-EPiK

Go down 
Tác giảThông điệp
.:.Admin.:.
Admin
Admin
avatar

Tổng số bài gửi : 190
Điểm số : 6648
Ngày tham gia : 21/02/2011
Tuổi : 31
Đến từ : Hà Nội, Việt Nam

Bài gửiTiêu đề: [MF] Tangled - Người Đẹp Tóc Mây (2010) mHD BluRay x264-EPiK    2/3/2011, 7:50 am



IMDB
Directors: Nathan Greno, Byron Howard
Writers: Jacob Grimm (fairy tale), Wilhelm Grimm (fairy tale), and 1 more credit »
Stars: Mandy Moore, Zachary Levi and Donna Murphy
Genres: Animation | Comedy | Family | Fantasy | Musical | Romance
Country: USA
Language: English
Người
đẹp tóc mây (Tangled) là bộ phim hoạt hình thứ 50 của Walt Disney và
được dàn dựng với công nghệ 3D. Thông qua câu chuyện cổ tích nhưng mang
đậm tính ngụ ngôn của Tangled, Walt Disney muốn gửi đến một cái nhìn
đầy phóng khoáng về cuộc đời, giúp chúng ta nhìn nhận mọi thứ xung
quanh một cách lạc quan hơn.


Ngày xửa ngày xưa, trên ngọn tháp cổ trong rừng sâu có một nàng công
chúa xinh đẹp có mái tóc vàng óng ả dài tới hơn 20 m. Nàng sống cùng Mẹ
Gothel và không bao giờ được tiếp xúc với thế giới bên ngoài. Mái tóc
của nàng có khả năng tỏa sáng trong bóng tối và chữa lành mọi vết
thương, lưu giữ tuổi thanh xuân cho con người.


Hàng năm cứ đến sinh nhật, nàng ngồi trên ngọn tháp ngắm nhìn hàng
nghìn ngọn đèn bay tỏa sáng trong đêm và mơ ước một lần được tới gần
chúng. Quanh năm suốt tháng, Mẹ Gothel chỉ cho phép nàng ca hát, vẽ vời
trong tháp. Nàng chỉ biết trò chuyện với người bạn duy nhất là chú tắc
kè có bộ dạng giống ếch - Pascal. Tên của nàng là Rapunzel.


Vào một ngày gần đến sinh nhật tuổi 18 của Rapunzel, tên đạo chích
quyến rũ Flynn Rider lẻn vào cung vua ăn trộm vương miện của nàng công
chúa bị mất tích năm xưa và chạy trốn tới ngọn tháp trong rừng. Tuy
nhiên, hí hửng vì thoát được quân triều đình chưa được bao lâu thì
Flynn đụng độ với Rapunzel.


Cô nàng tò mò bắt giữ anh để tìm cách thoát khỏi tòa tháp vào đúng sinh
nhật mình. Hai người thỏa hiệp, nếu Flynn dẫn Rapunzel đi xem đèn bay ở
trong hoàng cung thì cô sẽ trả lại vương miện cho anh. Cả hai bắt đầu
hành trình khám phá định mệnh của riêng mỗi người. Đồng hành với họ là
chú ngựa "lai chó" Maximus, tắc kè "lai ếch" Pascal và một nhóm người
thô lỗ nhưng có những khát khao, ước mơ ở quán rượu trong rừng.





Code:
General
Complete name : Tangled 2010 mHD BluRay x264-EPiK
Format : Matroska
File size : 1.18 GiB
Duration : 1h 40mn
Overall bit rate : 1 689 Kbps
Movie name : EPiK ~ all.hdvnbits.org
Encoded date : UTC 2011-03-01 01:27:25
Writing application : mkvmerge v4.5.0 ('Speed of Light') built on Feb 1 2011 02:10:32
Writing library : libebml v1.2.0 + libmatroska v1.1.0

Video
ID : 1
Format : AVC
Format/Info : Advanced Video Codec
Format profile : High@L4.1
Format settings, CABAC : Yes
Format settings, ReFrames : 8 frames
Codec ID : V_MPEG4/ISO/AVC
Duration : 1h 40mn
Bit rate : 1 207 Kbps
Width : 1 280 pixels
Height : 746 pixels
Display aspect ratio : 16:9
Frame rate : 23.976 fps
Color space : YUV
Chroma subsampling : 4:2:0
Bit depth : 8 bits
Scan type : Progressive
Bits/(Pixel*Frame) : 0.053
Stream size : 866 MiB (71%)
Title : EPiK ~ all.hdvnbits.org
Writing library : x264 core 114 r1913 5fd3dce
Encoding settings : cabac=1 / ref=8 / deblock=1:-3:-3 / analyse=0x3:0x113 / me=umh / subme=9 / psy=1 / psy_rd=0.80:0.00 / mixed_ref=1 / me_range=16 / chroma_me=1 / trellis=2 / 8x8dct=1 / cqm=0 / deadzone=21,11 / fast_pskip=0 / chroma_qp_offset=-2 / threads=6 / sliced_threads=0 / nr=0 / decimate=0 / interlaced=0 / constrained_intra=0 / bframes=7 / b_pyramid=2 / b_adapt=2 / b_bias=0 / direct=3 / weightb=1 / open_gop=0 / weightp=2 / keyint=250 / keyint_min=23 / scenecut=40 / intra_refresh=0 / rc_lookahead=40 / rc=crf / mbtree=1 / crf=24.0 / qcomp=0.60 / qpmin=0 / qpmax=69 / qpstep=4 / ip_ratio=1.40 / aq=1:0.80
Language : English

Audio
ID : 2
Format : AC-3
Format/Info : Audio Coding 3
Mode extension : CM (complete main)
Codec ID : A_AC3
Duration : 1h 40mn
Bit rate mode : Constant
Bit rate : 448 Kbps
Channel(s) : 6 channels
Channel positions : Front: L C R, Side: L R, LFE
Sampling rate : 48.0 KHz
Bit depth : 16 bits
Compression mode : Lossy
Stream size : 321 MiB (27%)
Title : EPiK ~ all.hdvnbits.org


Link download:
Trích dẫn :
mediafire.com ?g717im5zj6cd9

Sub Việt
Trích dẫn :
mediafire.com ?2gl2lh2x0noef1u


Nguồn từ HDMV

Về Đầu Trang Go down
http://thietbidaukhi.tk
 
[MF] Tangled - Người Đẹp Tóc Mây (2010) mHD BluRay x264-EPiK
Về Đầu Trang 
Trang 1 trong tổng số 1 trang
 Similar topics
-
» BẢN CRACK MỚI CHO KIS 2011 Cập nhật ngày 01/10/2010
» Google Earth-xem bản đồ và... qua vệ tinh
» ABS-5 hôm qua (08.12.2010) lại "ra đi" một số kênh
» tìm sdt tuấn tú
» Share 59 key KIS sử dụng cho các phiên bản 2010, 2011, 2012, 2013 hạn sử dụng 15/04/2015

Permissions in this forum:Bạn không có quyền trả lời bài viết
..:: DẦU KHÍ FAMILY - HUMG ::.. :: GIẢI TRÍ, CÔNG NGHỆ SỐ :: Films, Movie, Videos, Music, Ebooks :: Films-
Chuyển đến 
Create a forum on Forumotion | © phpBB | Free forum support | Report an abuse | Create a free blog