..:: DẦU KHÍ FAMILY - HUMG ::..


 
Trang ChínhTrang Chính  CalendarCalendar  Trợ giúpTrợ giúp  Tìm kiếmTìm kiếm  Đăng kýĐăng ký  Đăng Nhập  

Share | 
 

 [MF] Harry Potter and the Deathly Hallows Part 1 2010 mHD BluRay x264-EPiK

Go down 
Tác giảThông điệp
JiA
Supporter
Supporter
avatar

Tổng số bài gửi : 56
Điểm số : 5913
Ngày tham gia : 24/02/2011

Bài gửiTiêu đề: [MF] Harry Potter and the Deathly Hallows Part 1 2010 mHD BluRay x264-EPiK   1/4/2011, 10:06 pm



Code:
General
Complete name : Harry Potter and the Deathly Hallows Part 1 2010 mHD BluRay x264-EPiK
Format : Matroska
File size : 1.62 GiB
Duration : 2h 26mn
Overall bit rate : 1 588 Kbps
Movie name : EPiK ~ all.hdvnbits.org
Encoded date : UTC 2011-03-30 15:22:57
Writing application : mkvmerge v4.6.0 ('Still Crazy After All These Years') built on Mar 10 2011 02:50:32
Writing library : libebml v1.2.0 + libmatroska v1.1.0

Video
ID : 1
Format : AVC
Format/Info : Advanced Video Codec
Format profile : High@L4.1
Format settings, CABAC : Yes
Format settings, ReFrames : 8 frames
Codec ID : V_MPEG4/ISO/AVC
Duration : 2h 26mn
Bit rate : 1 108 Kbps
Width : 1 280 pixels
Height : 536 pixels
Display aspect ratio : 2.35:1
Frame rate : 23.976 fps
Color space : YUV
Chroma subsampling : 4:2:0
Bit depth : 8 bits
Scan type : Progressive
Bits/(Pixel*Frame) : 0.067
Stream size : 1.13 GiB (70%)
Title : EPiK ~ all.hdvnbits.org
Writing library : x264 core 114 r1924 08d04a4
Encoding settings : cabac=1 / ref=8 / deblock=1:-3:-3 / analyse=0x3:0x113 / me=umh / subme=9 / psy=1 / psy_rd=1.00:0.00 / mixed_ref=1 / me_range=16 / chroma_me=1 / trellis=2 / 8x8dct=1 / cqm=0 / deadzone=21,11 / fast_pskip=0 / chroma_qp_offset=-2 / threads=6 / sliced_threads=0 / nr=0 / decimate=0 / interlaced=0 / constrained_intra=0 / bframes=7 / b_pyramid=2 / b_adapt=2 / b_bias=0 / direct=3 / weightb=1 / open_gop=0 / weightp=2 / keyint=250 / keyint_min=23 / scenecut=40 / intra_refresh=0 / rc_lookahead=40 / rc=crf / mbtree=1 / crf=21.3 / qcomp=0.60 / qpmin=0 / qpmax=69 / qpstep=4 / ip_ratio=1.40 / aq=1:0.80
Language : English

Audio
ID : 2
Format : AC-3
Format/Info : Audio Coding 3
Mode extension : CM (complete main)
Codec ID : A_AC3
Duration : 2h 26mn
Bit rate mode : Constant
Bit rate : 448 Kbps
Channel(s) : 6 channels
Channel positions : Front: L C R, Side: L R, LFE
Sampling rate : 48.0 KHz
Bit depth : 16 bits
Compression mode : Lossy
Stream size : 468 MiB (28%)
Title : EPiK ~ all.hdvnbits.org
Language : English

Link download:
MF: mediafire.com ?jnf9h1cy65buc
4share: 4share.vn 4e7f7b7a787d7c7d

Source: HDMovie


Về Đầu Trang Go down
vu_vantien
STAFF LEADER
STAFF LEADER
avatar

Tổng số bài gửi : 513
Điểm số : 13263
Ngày tham gia : 28/02/2011
Tuổi : 31
Đến từ : Hà Nội, Việt Nam

Bài gửiTiêu đề: Re: [MF] Harry Potter and the Deathly Hallows Part 1 2010 mHD BluRay x264-EPiK   3/4/2011, 6:11 am

Bản chất lượng ko bạn ơi . Cho vài cái ss xem nào
Về Đầu Trang Go down
http://thietbidaukhi.tk
 
[MF] Harry Potter and the Deathly Hallows Part 1 2010 mHD BluRay x264-EPiK
Về Đầu Trang 
Trang 1 trong tổng số 1 trang
 Similar topics
-
» Thông tin liên quan tới World Cup 2014 ! Các Biện pháp xem chùa !!!

Permissions in this forum:Bạn không có quyền trả lời bài viết
..:: DẦU KHÍ FAMILY - HUMG ::.. :: GIẢI TRÍ, CÔNG NGHỆ SỐ :: Films, Movie, Videos, Music, Ebooks :: Films-
Chuyển đến 
Create a forum on Forumotion | © phpBB | Free forum support | Report an abuse | www.sosblog.com